История одной семьи / Like Arrows (2018) WEB-DLRip [DVO, AD] скачать торрент

Производство: США/Pro-Family Films
Жанр: Драма
Режиссер: Кевин Пиплз

Актеры
Алекс Кендрик, Алан Пауэлл, Кэтерин Шеплер, Мика Линн Хэнсон, Холли Моррис, Джастин Торренс, Виктория Анастаси, Элизабет Бечка, Дейв Блеми, Кристи Тейлор

Описание

Когда конфликты и обиды разрушают их семью, Чарли и Алиса вынуждены изменить свои взгляды на воспитание. К своему удивлению они обнаруживают, что эффективные и работающие способы намного проще, чем они думали.

Продолжительность: 01: 40: 02
Качество видео: WEB-DLRip
Перевод: Двуголосый любительский
Субтитры: Отсутствуют
Реклама: присутствуют аудио и видео вставки рекламы
Видео: Xvid, 720x304, ~1563 Кbps
Аудио: AC3, 2 ch, 384 Кbps - Русский (DVO)General
Complete name : Like.Arrows.2018.P.WEB-DLRip.14OOMB.avi
Format : AVI
Format/Info : Audio Video Interleave
File size : 1.37 GiB
Duration : 1 h 40 min
Overall bit rate : 1 956 kb/s
Writing application : VirtualDubMod 1.10.5ru (build 2550/release)
Writing library : VirtualDubMod build 2550/release
Video
ID : 0
Format : MPEG-4 Visual
Format profile : Advanced [email protected]
Format settings : BVOP2/Custom Matrix
Format settings, BVOP : 2
Format settings, QPel : No
Format settings, GMC : No warppoints
Format settings, Matrix : Custom
Codec ID : XVID
Codec ID/Hint : XviD
Duration : 1 h 40 min
Bit rate : 1 563 kb/s
Width : 720 pixels
Height : 304 pixels
Display aspect ratio : 2.35: 1
Frame rate : 23.976 (24000/1001) FPS
Color space : YUV
Chroma subsampling : 4: 2: 0
Bit depth : 8 bits
Scan type : Progressive
Compression mode : Lossy
Bits/(Pixel*Frame) : 0.298
Stream size : 1.09 GiB (80%)
Writing library : XviD 1.2.1 (UTC 2008-12-04)
Audio
ID : 1
Format : AC-3
Format/Info : Audio Coding 3
Commercial name : Dolby Digital
Codec ID : 2000
Duration : 1 h 40 min
Bit rate mode : Constant
Bit rate : 384 kb/s
Channel(s) : 2 channels
Channel layout : L R
Sampling rate : 48.0 kHz
Frame rate : 31.250 FPS (1536 SPF)
Compression mode : Lossy
Stream size : 275 MiB (20%)
Alignment : Split across interleaves
Interleave, duration : 42 ms (1.00 video frame)
Interleave, preload duratio : 500 ms
Service kind : Complete Main

Скриншоты для ознакомления



Все одноименные релизы в Клубе
Время раздачи: 24/7 (до появления первых 3-5 скачавших)
Скачать торрент istoriya-odnoy-semi-like-arrows-2.torrent
Support: [email protected]